<?xml version="1.0" standalone="no"?>
<!DOCTYPE svg PUBLIC "-//W3C//DTD SVG 1.1//EN" "http://www.w3.org/Graphics/SVG/1.1/DTD/svg11.dtd" >
<svg xmlns="http://www.w3.org/2000/svg">
<metadata></metadata>
<defs>
<font id="socialicoregular" horiz-adv-x="1630" >
<font-face units-per-em="2048" ascent="1536" descent="-512" />
<missing-glyph horiz-adv-x="500" />
<glyph horiz-adv-x="2048" />
<glyph horiz-adv-x="2048" />
<glyph unicode="&#xd;" horiz-adv-x="2048" />
<glyph unicode=" " d="M96 729q0 146 57.5 279.5t154 229.5t230 153t279.5 57t279.5 -57t229.5 -153t153 -229.5t57 -279.5q0 -196 -96.5 -362t-262 -262.5t-360.5 -96.5t-361 96.5t-263 262.5t-97 362z" />
<glyph unicode="!" d="M96 719q0 146 57.5 279.5t154 230t230 154t279.5 57.5t279.5 -57.5t229.5 -154t153 -230t57 -279.5t-57 -279.5t-153 -229.5t-229.5 -153t-279.5 -57t-279.5 57t-230 153t-154 229.5t-57.5 279.5zM303 616q0 -48 41 -86v172q-41 -33 -41 -86zM387 508q20 -4 33 -4h10v225 q-4 2 -10 2q-13 0 -33 -4v-219zM473 504h43v284q-28 -40 -35 -75l-8 4v-213zM559 504h43v346q-20 -6 -43 -21v-325zM645 504h43v354q-4 0 -13 1t-13 1q-11 0 -17 -2v-354zM711 504h63v356q-16 -22 -18 -26q-18 10 -45 18v-348zM797 504h407v2q62 3 93.5 37t31.5 86 t-34.5 87.5t-86.5 35.5q-20 0 -49 -11q-9 82 -71 137.5t-148 55.5q-87 0 -143 -53v-377z" />
<glyph unicode="$" horiz-adv-x="1628" d="M96 717q0 146 57 279.5t153 229.5t229.5 153t279.5 57t279.5 -57t229.5 -153t153 -229.5t57 -279.5q0 -196 -96.5 -362t-262 -262.5t-360.5 -96.5t-360.5 96.5t-262 262.5t-96.5 362zM401 553h56v170q0 41 10 68q9 21 29 34q23 13 45 13q32 0 45 -19q14 -17 14 -55v-211 h57v188q0 54 23 74q26 23 59 23q21 0 33 -9q15 -9 21 -24q6 -12 6 -47v-205h55v223q0 58 -27 82q-24 27 -75 27q-64 0 -105 -56q-10 27 -33 41q-24 15 -61 15q-35 0 -59 -15q-23 -13 -43 -36v45h-50v-326zM920 713q0 -80 43 -123t116 -43q61 0 97 26q39 28 51 78l-58 6 q-16 -36 -34 -49q-21 -16 -56 -16q-43 0 -69 29q-28 28 -31 81h250v15q0 79 -43 125q-40 43 -109 43q-70 0 -112 -45q-45 -42 -45 -127zM983 748q0 41 29 67q28 25 65 25q45 0 70 -31q19 -22 22 -61h-186z" />
<glyph unicode="&#x26;" horiz-adv-x="1628" d="M96 717q0 146 57 279.5t153 229.5t229.5 153t279.5 57t279.5 -57t229.5 -153t153 -229.5t57 -279.5q0 -196 -96.5 -362t-262 -262.5t-360.5 -96.5t-360.5 96.5t-262 262.5t-96.5 362zM512 807q0 -68 24 -109.5t80 -64.5q18 18 20 37t-6 33t-18 35.5t-12 39.5 q-6 57 22 112t76.5 87.5t110 40t123.5 -30.5q55 -33 70.5 -121.5t-16.5 -170t-97 -95.5q-21 -3 -44 2t-32 14q-23 21 -21 55t17 66.5t22.5 71.5t-4.5 70q-12 28 -34.5 34t-44 -5t-39 -34t-21.5 -49q-3 -21 4.5 -56t7.5 -48q0 -43 -27.5 -136t-31.5 -120q-14 -75 -2 -123h-2 h51q39 65 76 227q5 4 9 0.5t8 -11t7 -9.5q51 -34 120.5 -23.5t111.5 47.5q53 44 78.5 127t17.5 162q-9 85 -78 150t-161 75q-94 11 -177.5 -21t-135 -100.5t-52.5 -158.5z" />
<glyph unicode="(" horiz-adv-x="1628" d="M96 721q0 146 57 279.5t153 230t229.5 154t279.5 57.5t279.5 -57.5t229.5 -154t153 -230t57 -279.5t-57 -279.5t-153 -229.5t-229.5 -153t-279.5 -57t-279.5 57t-229.5 153t-153 229.5t-57 279.5zM465 721q0 -145 102.5 -247.5t247.5 -102.5t247.5 102.5t102.5 247.5 q0 146 -102.5 248t-247.5 102t-247.5 -102t-102.5 -248zM535 721q0 117 81.5 198.5t198.5 81.5q116 0 198.5 -81.5t82.5 -198.5q0 -115 -82.5 -197t-198.5 -82q-117 0 -198.5 81.5t-81.5 197.5zM676 686l139 -139l139 139h-69v211h-140v-211h-69z" />
<glyph unicode=")" d="M96 719q0 146 57 279.5t153 229.5t229.5 153t279.5 57t279.5 -57t230 -153t154 -229.5t57.5 -279.5t-57.5 -279.5t-154 -229.5t-230 -153t-279.5 -57t-279.5 57t-229.5 153t-153 229.5t-57 279.5zM346 764h154v-287q0 -13 11 -24t24 -11h350l-109 111h-166v211h154 l-209 229zM748 995l108 -110h166v-211h-156l211 -230l209 230h-153v287q0 13 -10.5 23.5t-24.5 10.5h-350z" />
<glyph unicode="," d="M96 713q0 146 57 279.5t153 230t229.5 154t279.5 57.5t279.5 -57.5t230 -154t154 -230t57.5 -279.5t-57.5 -279.5t-154 -229.5t-230 -153t-279.5 -57t-279.5 57t-229.5 153t-153 229.5t-57 279.5zM463 813q-12 -28 2 -51q11 -25 43 -31l12 -2l166 21q2 14 19 34l-103 74 l-31 12q-32 8 -63 -10q-30 -11 -45 -47zM506 594l2 -12q9 -16 37 -19q27 -3 61 12l8 7l35 28q7 6 21 20t22 21l-4 8l-6 23l-92 -16l-35 -15q-37 -16 -47 -47zM618 432q0 -21 11 -39q13 -30 49 -39q29 -9 63 8q30 15 43 48v12v45q-6 44 -10 125q-13 2 -37 14l-96 -114 q-8 -8 -18 -33zM635 1006q-5 -28 12 -62l6 -12l103 -111l16 6l-22 136q-1 8 -15 36q-20 41 -51 50q-18 7 -27 -2q-22 -13 -22 -41zM723 707q0 -34 25 -56q19 -22 53 -22q31 0 53 22q23 20 23 56q0 30 -23 53q-20 20 -53 20t-53 -20q-25 -25 -25 -53zM827 592l17 -98l14 -39 q19 -42 51 -52q18 0 27 7q18 5 25 41q2 28 -15 59l-6 12l-31 37l-47 49l-16 -8zM829 997l2 -47l11 -129q20 -10 35 -20l102 127q10 16 16 35l4 24q0 17 -8 41q-17 31 -53 37q-32 13 -66 -4q-36 -22 -41 -53zM901 647l121 -98q13 -16 33 -19q31 -11 63 5q30 15 39 51l4 22 q0 31 -18 49q-11 22 -41 33l-12 2l-46 -2l-131 -10l-4 -14zM905 762l2 -4l2 -8l142 16q16 2 39 10q42 20 53 51l2 11l-4 14q-10 24 -39 27q-34 3 -62 -11l-14 -4l-117 -98z" />
<glyph unicode="-" d="M96 719q0 146 57 279.5t153 229.5t229.5 153t279.5 57t279.5 -57t230 -153t154 -229.5t57.5 -279.5q0 -196 -97 -362t-263 -262.5t-361 -96.5t-360.5 96.5t-262 262.5t-96.5 362zM501 824.5q-9 -19.5 15 -48.5h2l119 -145l-62 -176q-11 -35 4.5 -48.5t47.5 3.5l188 94 l189 -94q34 -17 48.5 -3.5t2.5 48.5l-60 176l119 145h2q23 29 13.5 48.5t-46.5 19.5h-155l-76 157q-15 34 -37 34t-37 -34l-73 -157h-158q-37 0 -46 -19.5z" />
<glyph unicode="." d="M96 717q0 146 57 279.5t153 230t229.5 154t279.5 57.5t279.5 -57.5t230 -154t154 -230t57.5 -279.5t-57.5 -279.5t-154 -229.5t-230 -153t-279.5 -57t-279.5 57t-229.5 153t-153 229.5t-57 279.5zM485 717q0 -135 97.5 -231.5t232.5 -96.5q136 0 233 96.5t97 231.5 q0 137 -96.5 233.5t-233.5 96.5q-135 0 -232.5 -97t-97.5 -233zM553 717q0 109 76.5 186.5t185.5 77.5t186.5 -77.5t77.5 -186.5t-77.5 -185.5t-186.5 -76.5t-185.5 76.5t-76.5 185.5zM674 598q1 -22 17 -35t36 -10q22 3 35 19t12 38v2v172l133 25v-139q-8 4 -24 4 q-22 -3 -35.5 -19.5t-11.5 -38.5q1 -21 16.5 -34t36.5 -11q21 3 35 20t12 38v2v252l-191 -33v-199q-8 4 -24 4q-21 -3 -35 -19.5t-12 -37.5z" />
<glyph unicode="/" d="M96 717q0 146 57 279.5t153 229.5t229.5 153t279.5 57t279.5 -57t230 -153t154 -229.5t57.5 -279.5q0 -196 -97 -362t-263 -262.5t-361 -96.5t-360.5 96.5t-262 262.5t-96.5 362zM434 721q0 -63 44.5 -108.5t107.5 -45.5q22 0 51 11l147 -136l414 334v205q0 1 -1 4t-1 4 l-405 -430l-64 107q10 27 10 55q0 63 -44 107t-107 44t-107.5 -44t-44.5 -107z" />
<glyph unicode="0" d="M96 725q0 146 57 279.5t153 229.5t229.5 153t279.5 57t279.5 -57t230 -153t154 -229.5t57.5 -279.5t-57.5 -279.5t-154 -230t-230 -154t-279.5 -57.5t-279.5 57.5t-229.5 154t-153 230t-57 279.5zM455 502q65 24 116 24q59 0 134 -43q47 155 65 226q-4 3 -12.5 8t-12.5 8 q-55 25 -98 25h-12q-39 -2 -98 -21q-5 -3 -19 -8zM541 799q65 26 121 26q64 0 126 -43l66 224q-49 28 -76 34q-28 7 -55 7q-49 0 -121 -29zM764 449q21 -14 60 -30t71 -16q64 0 133 31l62 211q-62 -18 -119 -18q-90 0 -144 43zM848 741q64 -43 139 -43q57 0 123 29v2h4 l62 217q-62 -24 -121 -24q-75 0 -142 43z" />
<glyph unicode="1" d="M96 725q0 195 96.5 360.5t262.5 262t362 96.5q146 0 279.5 -57t229.5 -153t153 -229.5t57 -279.5t-57 -279.5t-153 -230t-229.5 -154t-279.5 -57.5q-196 0 -362 97t-262.5 263t-96.5 361zM477 623h238v-236h203v236h237v202h-237v238h-203v-238h-238v-202z" />
<glyph unicode="2" d="M96 717q0 116 36 225.5t102 197.5t154 154.5t196.5 103.5t224.5 38h14q146 -1 278 -58.5t227 -154t151.5 -228.5t56.5 -278t-57 -279.5t-153 -229.5t-229.5 -153t-279.5 -57t-279.5 57t-230 153t-154 229.5t-57.5 279.5zM453 733q0 -51 35.5 -87t86.5 -36q43 0 80 29 l248 -125v-6q0 -51 36 -87t87 -36t87 36t36 87t-36 87t-87 36q-38 0 -80 -29l-248 123v8v6l248 125q36 -28 80 -28q51 0 87 35t36 87q0 51 -36 86t-87 35t-87 -35t-36 -86v-8l-248 -125q-40 31 -80 31q-51 0 -86.5 -36t-35.5 -87z" />
<glyph unicode="3" horiz-adv-x="1628" d="M96 719q0 146 57 279.5t153 230t229.5 154t279.5 57.5t279.5 -57.5t229.5 -154t153 -230t57 -279.5t-57 -279.5t-153 -229.5t-229.5 -153t-279.5 -57t-279.5 57t-229.5 153t-153 229.5t-57 279.5zM420 909q-19 -60 6 -136.5t77.5 -145t114 -127.5t119 -94t90.5 -35 q40 0 113.5 55t142.5 134t109.5 177t17.5 172q-25 81 -80.5 120.5t-123.5 39.5q-38 0 -71 -13.5t-53 -33t-34.5 -39.5t-22.5 -33.5t-10 -13.5t-9.5 13.5t-21.5 33t-33.5 39.5t-52 33.5t-71.5 13.5q-69 0 -125.5 -39.5t-81.5 -120.5z" />
<glyph unicode="4" horiz-adv-x="1628" d="M96 715q0 145 56 277.5t151.5 229t227 154t276.5 58.5h16q145 -1 276.5 -58.5t227 -154t151.5 -229t56 -277.5q0 -146 -57 -279.5t-153 -229.5t-229.5 -153t-279.5 -57t-279.5 57t-229.5 153t-153 229.5t-57 279.5zM467 723q0 -47 12 -90q7 6 155.5 140.5t153.5 139.5 q-4 3 -65 58.5t-66 60.5q-89 -44 -139.5 -127t-50.5 -182zM492 594q45 -109 145 -168v299q-8 -7 -74.5 -67t-70.5 -64zM672 406q61 -26 110 -29h66q90 8 165 59.5t115 134.5h-456v-165zM694 1049q4 -4 131 -120t133 -122v233q-70 31 -143 31q-60 0 -121 -22zM995 608h150 q18 55 18 115q0 91 -45 170.5t-123 126.5v-412z" />
<glyph unicode="5" d="M96 723q0 146 57 279.5t153 230t229.5 154t279.5 57.5q196 0 362 -97t262.5 -263t96.5 -361t-96.5 -360.5t-262.5 -262t-362 -96.5q-146 0 -279.5 57t-229.5 153t-153 229.5t-57 279.5zM414 410l225 67v-92h330l-97 291h158q82 0 139.5 57t57.5 139t-57.5 139.5 t-139.5 57.5q-73 0 -128 -48.5t-66 -119.5h-7q-11 71 -66 119.5t-128 48.5q-82 0 -138.5 -57.5t-56.5 -139.5q0 -79 56.5 -136.5t136.5 -59.5h6v-66l-225 60v-260zM580 872q0 23 16 39.5t39 16.5t39 -16.5t16 -39.5t-16 -39t-39 -16t-39 16t-16 39zM979 872q0 23 16 39.5 t39 16.5t39.5 -16.5t16.5 -39.5t-16.5 -39t-39.5 -16t-39 16t-16 39z" />
<glyph unicode="6" d="M96 717q0 146 57.5 279.5t154 230t230 154t279.5 57.5t279.5 -57.5t229.5 -154t153 -230t57 -279.5t-57 -279.5t-153 -229.5t-229.5 -153t-279.5 -57t-279.5 57t-230 153t-154 229.5t-57.5 279.5zM322 717q0 -122 85.5 -208.5t208.5 -86.5q68 0 128 29t100 79l-37 88 q-28 -53 -79 -83.5t-112 -30.5q-89 0 -152 62.5t-63 150.5q0 89 63 152t152 63q66 0 120 -35t77 -92l94 -215l11 -25q31 -70 77 -104.5t119 -34.5q85 0 142 48.5t57 123.5q0 69 -35 104.5t-117 63.5q-10 3 -31 9.5t-29 9.5t-23 9t-21 11.5t-14 13.5t-10.5 18t-2.5 23 q0 32 23 54t57 22q48 0 84 -47l63 33q-50 86 -143 86q-73 0 -116.5 -41t-43.5 -109q0 -65 41 -101t135 -67q56 -18 79.5 -35t23.5 -55q0 -42 -35 -70.5t-88 -25.5q-51 1 -76 25.5t-49 76.5q-86 200 -96 225q-37 86 -109 134.5t-164 48.5q-123 0 -208.5 -87t-85.5 -210z" />
<glyph unicode="7" d="M96 711q0 146 57.5 279.5t154 230t230 154t279.5 57.5t279.5 -57.5t229.5 -154t153 -230t57 -279.5t-57 -279.5t-153 -229.5t-229.5 -153t-279.5 -57t-279.5 57t-230 153t-154 229.5t-57.5 279.5zM565 809q0 -91 58 -161t147 -89l51 -203l51 203q87 19 145 89t58 161 q0 104 -75 179t-179 75q-106 0 -181 -75t-75 -179zM631 809q0 78 55.5 134t134.5 56q78 0 134.5 -56t56.5 -134q0 -79 -56.5 -135t-134.5 -56q-79 0 -134.5 55.5t-55.5 135.5zM715 809q0 -44 31 -75.5t75 -31.5q43 0 74 31.5t31 75.5q0 43 -31 73.5t-74 30.5 q-44 0 -75 -30.5t-31 -73.5z" />
<glyph unicode="8" d="M96 721q0 146 57.5 279.5t154 229.5t230 153t279.5 57t279.5 -57t229.5 -153t153 -229.5t57 -279.5q0 -196 -96.5 -362t-262 -262.5t-360.5 -96.5t-361 96.5t-263 262.5t-97 362zM530 641q67 -252 285 -264q220 8 273 212q29 109 7 230l-3 11v-1q2 -14 -4.5 -30.5 t-13.5 -26.5l-7 -10q-4 38 -29.5 83.5t-59.5 82.5t-67.5 68.5t-56.5 49.5l-23 17q-2 -26 -39 -63.5t-92 -88t-84 -92.5q-26 -37 -37.5 -83.5t-13.5 -75.5t-6 -31q-5 -2 -12.5 1t-12.5 7z" />
<glyph unicode="9" d="M96 719q0 146 57.5 279.5t154 229.5t230 153t279.5 57t279.5 -57t229.5 -153t153 -229.5t57 -279.5q0 -196 -96.5 -362t-262 -262.5t-360.5 -96.5t-361 96.5t-263 262.5t-97 362zM385 682q-3 -59 36 -96t107 -31q21 4 31 10q8 3 21 14t16 13q-5 -23 -7 -38t-1 -35.5 t12 -31t33 -10.5h47q5 25 10.5 69t7.5 54q2 15 10.5 57t10.5 66q4 60 -27 94t-88 37q-105 8 -172 -59q-44 -51 -47 -113zM494.5 706q7.5 43 31.5 62q9 9 31 12q28 0 39 -8q23 -20 17 -64.5t-31 -62.5q-12 -8 -32 -10t-38 6q-25 22 -17.5 65zM748 647q-9 -50 2 -65 q16 -21 90 -17q13 73 28 189q10 48 0 61q-5 11 -19.5 16.5t-26.5 6t-38 0.5h-8v-2q-3 -23 -13.5 -89t-14.5 -100zM782 895q6 -22 29.5 -29.5t44.5 2.5q19 7 30.5 24t4.5 40q-7 20 -37 26h-18q-63 -19 -54 -63zM895 618q-3 -36 22.5 -46.5t73.5 -8.5q4 22 11.5 67t11.5 66 q7 -10 19 -32t18 -31q28 -51 43 -60q29 -21 70.5 -8.5t45.5 45.5q-20 4 -35.5 17t-23.5 25t-19 33.5t-18 31.5q10 11 66.5 64t66.5 65q-15 -1 -39 0.5t-42.5 1t-32.5 -5.5q-10 -4 -31 -25q-10 -9 -55 -59q-13 -16 -29 -29q2 22 12 78t12 80q3 39 -21 49t-77 8v-4 q-4 -29 -16 -105.5t-22 -140.5t-11 -76z" />
<glyph unicode=":" horiz-adv-x="1634" d="M227 881q2 169 99.5 299.5t255 191t336.5 39.5q174 -20 304.5 -143t149.5 -283q14 -151 -34 -307t-148 -240q-50 -44 -129 -71t-166 -23.5t-143 47.5q-6 4 -13.5 18.5t-15.5 21t-18 -0.5q-74 -310 -144 -430h-98h4q-9 50 -7 115.5t11 117.5q8 45 60.5 223.5t52.5 260.5 q0 24 -15 91.5t-8 106.5q7 48 40.5 91t74.5 64.5t84 9.5t65 -64q17 -41 15 -87.5t-17.5 -90t-31.5 -89.5t-27 -85t-4 -77.5t37 -66.5q19 -19 61 -28t82 -3q63 13 111 64t74 121t34 153t-4 159.5t-46.5 140t-86.5 94.5q-89 54 -186.5 59t-178 -33t-144.5 -101t-96.5 -149 t-23.5 -172q3 -29 17.5 -61.5t28 -56t22.5 -49t1 -52.5t-36 -55q-105 42 -152 122t-47 208z" />
<glyph unicode="?" d="M96 719q0 146 57 279.5t153 230t229.5 154t279.5 57.5t279.5 -57.5t230 -154t154 -230t57.5 -279.5t-57.5 -279.5t-154 -229.5t-230 -153t-279.5 -57t-279.5 57t-229.5 153t-153 229.5t-57 279.5zM471 772q0 -78 67 -141t173 -88q-27 -96 -62 -117q7 0 19 1t46 7.5 t64.5 17.5t66.5 34.5t60 54.5q112 22 183 85.5t71 145.5q0 100 -101 171t-243 71t-243 -71t-101 -171zM784 963h9q115 0 196.5 -56.5t81.5 -136.5q0 -55 -41.5 -100.5t-109.5 -69.5q48 28 75 69.5t27 88.5q0 77 -68 135t-170 70z" />
<glyph unicode="@" d="M96 719q0 146 57.5 279.5t154 230t230 154t279.5 57.5t279.5 -57.5t229.5 -154t153 -230t57 -279.5t-57 -279.5t-153 -229.5t-229.5 -153t-279.5 -57t-279.5 57t-230 153t-154 229.5t-57.5 279.5zM541 748q0 -66 20 -123.5t51 -100.5q58 -88 105 -86q20 1 51.5 15 t58.5 14q26 0 58.5 -14t54.5 -13q21 0 41 14t30.5 27t30.5 41q9 13 17 27.5t13.5 26t9 20.5t6 15t2.5 7q-2 0 -10.5 4t-22.5 14.5t-27 25t-22.5 39t-10.5 53.5q0 38 19 70.5t33 43.5t22 15q-25 37 -60.5 51t-62.5 14q-31 3 -76 -13.5t-53 -16.5q-11 0 -48.5 14.5t-61.5 13.5 q-43 0 -80.5 -23t-59.5 -61q-28 -48 -28 -114zM813 956q57 -6 100 48q41 47 35 108q-25 -2 -52 -16t-46 -35q-43 -50 -37 -105z" />
<glyph unicode="A" horiz-adv-x="1570" d="M104 393q6 2 15 -2q313 -180 682 -180q252 0 483 92q4 1 37 14q13 5 23.5 -0.5t10 -14.5t-11.5 -17q-34 -30 -59 -41q-104 -64 -238 -98.5t-260 -34.5q-197 0 -371 68t-311 194q-7 5 -7 11q0 7 7 9zM477 748q0 90 41.5 150t116.5 89q54 30 166 45q82 8 110 8v21 q0 4 0.5 21.5t0 24.5t-2 20.5t-5.5 23t-11 18.5q-28 39 -80 39h-12q-92 -11 -111 -92q-10 -24 -24 -24l-146 14q-24 10 -18 33q11 58 41 102t72.5 69t88 38t97.5 16h30q60 0 122 -19t102 -55q15 -14 26 -28.5t18 -35.5t11 -32t6 -40t2.5 -36t0 -42.5t-0.5 -39.5v-233 q0 -31 10 -57.5t19 -39t31 -38.5q11 -22 -4 -37q-17 -16 -115 -96q-11 -14 -33 -5q-15 12 -25.5 21.5t-19.5 20.5t-12.5 15.5t-13.5 20t-13 19.5q-76 -74 -141 -92q-54 -15 -103 -15q-98 0 -159.5 59.5t-61.5 168.5zM690 774q0 -48 24.5 -77t67.5 -29h19q57 17 82 69 q8 11 13.5 24.5t8.5 22.5t4.5 28t1.5 24v29.5v27.5v29q-73 0 -110 -9q-111 -33 -111 -139zM1216 367q0 6 9 12q33 22 59 31q47 12 92 12q14 0 27 -1q57 -5 65 -20q9 -9 9 -22v-6q-4 -47 -28 -105.5t-65 -93.5q-7 -7 -12 -7q-4 0 -7 3q-4 4 1 10q44 109 44 153q0 14 -5 21 q-11 13 -66 13q-23 0 -55 -2q-13 -2 -32.5 -4.5t-22.5 -2.5q-13 0 -13 9z" />
<glyph unicode="B" horiz-adv-x="1286" d="M96 600v608q0 50 36 85.5t87 35.5q49 0 85 -35.5t36 -85.5v-608q0 -102 72 -173t172 -71h121q103 0 173 61t70 150q0 87 -38 150t-83 63h-243q-51 0 -87 36t-36 87q0 50 36 85.5t87 35.5h243q152 0 258.5 -133t106.5 -324q0 -189 -142.5 -322.5t-344.5 -133.5h-121 q-202 0 -345 144t-143 345z" />
<glyph unicode="C" horiz-adv-x="1490" d="M96 586v178q0 10 9 19.5t20 9.5h313l-135 -236h-178q-11 0 -20 8t-9 21zM199 166l14 119q0 10 9.5 14.5t17.5 -0.5l77 -45q22 -16 5 -33l-101 -65q-11 -8 -16.5 -4.5t-5.5 14.5zM254 373l358 618q4 10 16.5 14t24.5 -1l76 -46q24 -12 12 -40l-358 -619 q-4 -10 -16.5 -13.5t-24.5 1.5l-76 45q-16 8 -16 24q0 7 4 17zM616 557l136 236h77l111 -236h-324zM715 1305q1 1 3 1q12 0 39 -38q30 -43 83 -136.5t73 -125.5q47 -72 130 -228.5t114 -220.5q16 -22 0.5 -43t-37.5 -27q-3 -1 -14 -5.5t-15 -5t-13 0.5t-19 6t-32 44.5 t-51.5 103t-53.5 117.5t-53 120.5t-35 79.5q-4 10 -21 47t-28 61.5t-27.5 64t-26 66.5t-17.5 55q-8 26 -8 41q0 18 9 22zM1092 793h276q13 0 21 -9t9 -20v-178q0 -29 -30 -29h-156q-2 2 -4.5 12t-5.5 13q-19 38 -26 55q-13 20 -41.5 75.5t-42.5 80.5zM1108 418q3 13 16 20 l45 23q6 3 12 3q5 0 11 -2q12 -5 16 -16l37 -69q13 -29 -10 -49l-33 -19q-27 -11 -45 13l-43 73q-7 8 -7 17q0 3 1 6zM1212 211q-15 20 -15 38q0 21 20 42q28 14 48 14q9 -1 16 -3q24 -8 34 -36q11 -28 13 -58q1 -17 1 -32q0 -12 -1 -23l-1 -24q-3 12 -24.5 22t-49 24.5 t-41.5 35.5z" />
<glyph unicode="D" horiz-adv-x="1388" d="M96 719q0 122 47 232.5t127 190.5t191 127.5t233 47.5t233.5 -47.5t191.5 -127.5t127.5 -190.5t47.5 -232.5t-47.5 -233.5t-127.5 -191.5t-191.5 -127.5t-233.5 -47.5t-233 47.5t-191 127.5t-127 191.5t-47 233.5zM197 694q3 -179 131 -313q74 113 181 194.5t236 124.5 q-15 28 -30 72q-227 -82 -449 -82q-11 0 -33.5 2t-35.5 2zM199 793h67q213 0 406 71q-84 156 -207 297q-105 -56 -175.5 -152.5t-90.5 -215.5zM401 311q140 -92 293 -92q87 0 158 25q-14 176 -74 362q-234 -80 -377 -295zM565 1198q117 -144 199 -297q146 64 276 176 q-70 67 -159.5 103.5t-186.5 36.5q-61 0 -129 -19zM807 809q6 -13 17.5 -40.5t17.5 -41.5q99 18 162 18q83 0 190 -26q0 146 -88 280q-139 -118 -299 -190zM874 631q52 -155 74 -342q91 52 152.5 139t83.5 193q-99 22 -180 22q-66 0 -130 -12z" />
<glyph unicode="E" horiz-adv-x="1644" d="M96 268v903h436q164 0 236 -96q41 -56 41 -135q0 -85 -45 -133q-16 -27 -66 -51q70 -29 103 -82q37 -60 37 -133q0 -76 -41 -144q-26 -43 -66 -69q-31 -27 -100 -49q-71 -11 -129 -11h-406zM303 426h193q61 0 92 16q59 26 59 113q0 70 -59 96q-22 15 -88 15h-197v-240z M303 817h193q52 0 96 23q37 21 37 78q0 62 -49 83q-54 15 -107 15h-170v-199zM907 614q0 165 90 258q86 89 232 89q79 0 151 -29q71 -38 111 -96q40 -66 51 -136q8 -62 8 -127h-473q0 -94 68 -135q36 -26 92 -26q52 0 94 30q22 14 35 43h172q-6 -58 -61 -116 q-81 -93 -244 -93q-128 0 -229 76q-97 81 -97 262zM1044 1042v93h361v-93h-361zM1081 684h291q-6 64 -43 104q-44 33 -100 33q-69 0 -103 -37q-33 -39 -45 -100z" />
<glyph unicode="F" horiz-adv-x="862" d="M96 674v239h193v119q0 130 83.5 222t202.5 92h193v-236h-193q-18 0 -32.5 -22t-14.5 -52v-123h240v-239h-240v-582h-239v582h-193z" />
<glyph unicode="G" horiz-adv-x="854" d="M96 358q0 64 35 117.5t98 89.5q-22 52 -22 107q0 66 26 119q-104 84 -104 213q0 114 80 195t192 81q73 0 146 -47l198 110v-184l-96 -51q37 -47 37 -104q0 -115 -81 -196t-195 -81h-9q-4 0 -7 -19.5t-3 -35.5q0 -33 10 -56h27q138 0 235 -75.5t97 -182.5t-97 -182.5 t-235 -75.5t-235 75.5t-97 182.5zM281 358q0 -41 42.5 -69.5t104.5 -28.5t104.5 28.5t42.5 69.5t-43 71t-104 30t-104 -30t-43 -71zM281 1004q0 -55 38 -92.5t91 -37.5t91 37.5t38 92.5q0 52 -38.5 90.5t-90.5 38.5t-90.5 -38.5t-38.5 -90.5z" />
<glyph unicode="H" horiz-adv-x="1427" d="M96 991q0 141 98.5 239.5t239.5 98.5q108 0 184 -55q31 8 93 8q154 0 284.5 -76t206.5 -205.5t76 -281.5q0 -53 -2 -78q57 -85 57 -192q0 -141 -98.5 -239.5t-239.5 -98.5q-101 0 -180 51q-53 -12 -104 -12q-154 0 -285 76.5t-207 207.5t-76 285q0 53 9 88 q-56 77 -56 184zM372 486q8 -42 48 -80q64 -60 140 -86q59 -20 150 -20q25 0 52 1q68 3 131 31.5t103.5 73t56.5 100.5q6 21 6 41q0 35 -17 71q-13 32 -32 57t-46.5 43.5t-53 31.5t-63.5 24.5t-65.5 18t-71.5 16.5t-69 16q-85 21 -90 73v8q0 39 46 70q44 30 103 30 q44 -1 85.5 -23t67.5 -47.5t52.5 -45.5t44.5 -18q22 3 40.5 20t26 41t-3.5 55t-44 59q-108 95 -277 95q-29 0 -59 -3q-100 -10 -171.5 -72t-78.5 -172q-1 -9 -1 -17q0 -44 22 -82q26 -46 74.5 -76t102.5 -48.5t111 -26.5q33 -5 63 -13.5t58 -22t44 -30.5t15 -40.5t-24 -49.5 q-35 -39 -93 -45q-18 -2 -34 -2q-36 0 -63 8q-39 12 -68 29q-11 6 -28.5 25t-33 36t-39 30t-47.5 12q-38 -2 -58 -28q-15 -19 -14 -46q0 -10 2 -22z" />
<glyph unicode="I" horiz-adv-x="1232" d="M96 1243q0 59 41 101t99 42t99.5 -42t41.5 -101t-41.5 -100t-99.5 -41t-99 41t-41 100zM121 225v793h229v-793h-229zM461 225v793h229v-37q62 30 135 30h13q80 -3 147 -38q68 -38 111 -112.5t43 -151.5v-484h-226v484q0 17 -13 39t-26 26q-25 14 -53.5 15t-50.5 -7.5 t-41 -19.5t-29 -20l-10 -9v-508h-229z" />
<glyph unicode="J" horiz-adv-x="1886" d="M98 484q-1 14 -1 27q0 38 5 73q7 49 29 105t58.5 104t98.5 94t144 80l-100 198l243 31l82 -166q7 0 15 2q174 28 317 28h9q147 -1 263 -26t204.5 -61.5t150.5 -78.5t101 -78.5t57 -60.5l18 -24l-778 -221l-180 364q55 9 110 9q66 0 133 -13l74 -139l264 70q-7 5 -19 12.5 t-53 29t-84 39t-108.5 35t-130.5 25.5q-38 4 -81 4q-32 0 -67 -2q-81 -6 -159 -29l213 -432l-779 -225q-3 6 -7.5 17.5t-15 47.5t-17.5 72.5t-9 88.5zM345 580q0 -29 7 -46l6 -18l258 72l-114 235q-62 -39 -99.5 -85.5t-46.5 -83.5q-11 -40 -11 -74z" />
<glyph unicode="K" horiz-adv-x="1636" d="M96 590v766h262v-373q193 111 461 111q146 0 280 -39t231 -105t154.5 -156.5t57.5 -189.5q0 -134 -97.5 -247.5t-264 -179.5t-361.5 -66q-192 0 -356.5 64t-262.5 174t-104 241zM358 604q0 -137 135 -232.5t326 -95.5t326 95.5t135 232.5q0 135 -135.5 231.5t-325.5 96.5 t-325.5 -96.5t-135.5 -231.5zM516 604q0 89 88 151t215 62q125 0 214 -62t89 -151q0 -90 -89 -153.5t-214 -63.5q-127 0 -215 63t-88 154z" />
<glyph unicode="L" horiz-adv-x="1572" d="M248 342q18 -2 59 -2q177 0 305 104q-81 1 -143 49t-86 123q24 -6 45 -6q26 0 66 8q-86 19 -142.5 86.5t-56.5 155.5v2q58 -28 115 -28q-53 32 -82 86t-29 118t33 125q94 -116 225.5 -184t282.5 -74q-6 24 -6 53q0 103 72 176.5t173 73.5q106 0 181 -78q66 10 157 58 q-31 -85 -108 -135q67 8 141 39q-51 -72 -123 -129v-29q0 -100 -28.5 -200t-88 -191t-141 -161t-196.5 -111.5t-246 -41.5q-205 0 -379 113z" />
<glyph unicode="M" horiz-adv-x="1259" d="M96 590v244q0 59 39.5 99t97.5 40q46 0 81.5 -30t47.5 -77q61 74 154 74q68 0 122 -41.5t71 -105.5q73 73 188 73q110 0 189 -78t79 -188v-500h-534v279h-322v211h-213zM111 1143q0 47 33.5 80.5t80.5 33.5t81 -33.5t34 -80.5q0 -49 -34 -84t-81 -35t-80.5 35t-33.5 84z M365 1143q0 62 44 106.5t107 44.5q62 0 107 -45t45 -106q0 -63 -45 -107.5t-107 -44.5q-63 0 -107 44.5t-44 107.5zM700 1143q0 80 57.5 137t139.5 57t138.5 -57t56.5 -137q0 -84 -56 -141.5t-139 -57.5q-82 0 -139.5 58t-57.5 141z" />
<glyph unicode="N" horiz-adv-x="1626" d="M96 719q0 130 92.5 221.5t221.5 91.5q130 0 221.5 -91t91.5 -222t-91.5 -222t-221.5 -91q-129 0 -221.5 91.5t-92.5 221.5zM907 719q0 130 92 221.5t220 91.5q129 0 221 -91.5t92 -221.5t-92 -221.5t-221 -91.5q-128 0 -220 91.5t-92 221.5z" />
<glyph unicode="O" horiz-adv-x="835" d="M96 809v145q75 26 115 58q43 34 70 90q23 42 36 129h144v-238h239v-184h-239v-264q0 -93 8 -111q11 -25 41 -45q26 -18 76 -18q84 0 155 49v-164q-81 -32 -118 -43q-55 -12 -117 -12q-44 0 -111 18q-53 17 -92 53q-42 31 -51 70q-16 31 -16 107v360h-140z" />
<glyph unicode="P" horiz-adv-x="1431" d="M96 217l248 1135h557q65 0 124.5 -23t107 -70.5t65.5 -120.5q9 -36 9 -79.5t-9 -93.5q-38 -172 -164.5 -272.5t-296.5 -100.5h-231l-82 -375h-328zM225 80l15 59h274l80 375h233q170 0 297.5 101t163.5 272q10 49 10 92q0 70 -26 125q66 -76 66 -185q0 -44 -11 -94 q-38 -172 -165 -272t-296 -100h-235l-78 -373h-328zM551 809h154h8q60 3 111.5 48t68.5 108q0 10 4 14q1 8 1 18q0 20 -5 45q-11 34 -41 56t-70 22h-161z" />
<glyph unicode="Q" horiz-adv-x="1363" d="M98 782q6 156 89.5 289.5t220.5 212t294 78.5q158 0 290.5 -78.5t206.5 -211.5q69 -126 69 -270v-20q-6 -149 -81.5 -276t-199.5 -207q37 -49 76 -73t59 -24l21 1v-99q-6 -3 -16.5 -8t-41.5 -12q-27 -7 -54 -7h-7q-29 1 -66.5 17.5t-66.5 50.5q-35 41 -62 84 q-77 -26 -165 -26q-119 0 -225.5 45.5t-182.5 123t-119 184.5q-39 98 -39 206v20zM389 793v-16q0 -167 80 -285q84 -125 209 -125q42 0 74 14q-4 7 -13.5 23.5t-13.5 23.5q-19 26 -46 36.5t-44 7.5l-17 -3v100q3 1 9 3.5t24.5 6.5t37.5 5t45 -3t50.5 -14.5t51.5 -33.5 t49 -56q47 59 77 142t33 174v17q0 105 -33 196q-37 97 -104.5 154t-150.5 57q-124 0 -216.5 -124t-101.5 -300z" />
<glyph unicode="R" horiz-adv-x="1441" d="M96 264q0 69 48.5 117.5t117.5 48.5t117.5 -48.5t48.5 -117.5t-48.5 -117.5t-117.5 -48.5t-117.5 48.5t-48.5 117.5zM96 686v240q224 0 414.5 -111.5t302 -302t111.5 -414.5h-244q0 118 -43.5 224.5t-126.5 189.5q-84 84 -191 129t-223 45zM96 1110v240q254 0 486 -99.5 t399.5 -267t267 -399.5t99.5 -486h-240q0 205 -80.5 392.5t-216 323t-323 216t-392.5 80.5z" />
<glyph unicode="S" horiz-adv-x="1667" d="M96 506v203h254v-203q0 -33 22.5 -56.5t55.5 -23.5q32 0 54 23.5t22 56.5v461q0 136 97.5 233.5t234.5 97.5q136 0 232.5 -97.5t96.5 -233.5v-93l-151 -47l-105 47v93q0 31 -21.5 54t-51.5 23q-32 0 -54 -23t-22 -54v-471q0 -136 -97.5 -229t-234.5 -93q-138 0 -235 97 t-97 235zM909 496v209l105 -48l151 48v-209q0 -34 22 -56t54 -22q34 0 56 22t22 56v202h254v-202q0 -138 -97 -235t-235 -97q-136 0 -234 97.5t-98 234.5z" />
<glyph unicode="T" horiz-adv-x="1093" d="M96 641v502q0 58 41.5 98.5t98.5 40.5q61 0 101 -40t40 -99v-139h483q57 0 98 -42.5t41 -103.5q0 -57 -41 -98t-98 -41h-483v-78q0 -83 53.5 -145t122.5 -62h309q59 0 98 -39t39 -100q0 -58 -41 -98.5t-98 -40.5h-313q-186 0 -318.5 142t-132.5 343z" />
<glyph unicode="U" horiz-adv-x="1396" d="M96 506v444q0 159 111.5 272t269.5 113h268q81 -10 170 -69.5t125 -141.5q1 -3 6 -13t6.5 -13.5t5.5 -14t6.5 -21t6 -28t6.5 -39.5q2 -10 4 -26.5t4 -25t4.5 -19.5t6.5 -18.5t10 -12.5q18 -18 88.5 -20t77.5 -7l18 -14l13 -23v-14v-309q0 -158 -113 -271.5t-270 -113.5 h-443q-158 0 -269.5 113t-111.5 272zM410 508q0 -30 21.5 -52t51.5 -22h432q30 0 52 22t22 52q0 31 -21.5 52.5t-52.5 21.5h-432q-31 0 -52 -21.5t-21 -52.5zM410 948q0 -31 21 -52.5t52 -21.5h211q31 0 52.5 21.5t21.5 52.5q0 30 -22 52t-52 22h-211q-30 0 -51.5 -22 t-21.5 -52z" />
<glyph unicode="V" horiz-adv-x="1613" d="M96 1012q10 12 27.5 31.5t69 70.5t100.5 92.5t113 80t116 48.5q16 3 31 3q22 0 42 -7q32 -12 53.5 -42.5t37 -68t26.5 -89.5t18 -96.5t15.5 -99t16.5 -87.5q43 -159 67 -221t52 -62q61 0 198 254q29 57 31 110q0 3 1 6q1 49 -23 76q-24 29 -69 35q-6 1 -12 1 q-40 0 -94 -33q25 155 155 252q109 82 232 82t181 -85q37 -55 37 -135q0 -36 -7 -77q-22 -127 -86 -259t-140.5 -233.5t-164.5 -192.5t-153.5 -145.5t-112.5 -83.5q-50 -31 -96 -31h-1q-45 0 -85 26t-69 59.5t-46 70.5q-25 49 -123.5 371.5t-120.5 347.5q-11 14 -32 14 t-42 -9.5t-40.5 -21t-32.5 -20.5l-12 -10z" />
<glyph unicode="W" horiz-adv-x="1441" d="M96 713q0 122 56 254l299 -815q-160 76 -257.5 227t-97.5 334zM201 1055q85 130 221.5 205t298.5 75q120 0 229.5 -42.5t194.5 -118.5h-12q-43 0 -73 -34t-30 -77q0 -24 9.5 -51t20.5 -46t32 -51q17 -30 25 -46.5t18 -52t10 -71.5q0 -72 -49 -202l-62 -207l-225 668l70 8 q16 2 21 14.5t-2.5 24.5t-23.5 12q-97 -8 -165 -8l-166 8q-16 0 -23 -12t-2 -24.5t21 -14.5q34 -4 67 -8l96 -265l-137 -409l-225 674l70 8q17 2 22.5 14.5t-1.5 24.5t-23 12q-100 -8 -166 -8h-41zM547 115l184 542l193 -524q1 -1 1.5 -2.5t1.5 -2.5t3 -1q-90 -37 -209 -37 q-98 0 -174 25zM1034 174l191 549q49 119 49 225q0 46 -4 64q78 -146 78 -299q0 -169 -86 -313.5t-228 -225.5z" />
<glyph unicode="X" horiz-adv-x="1261" d="M96 571v74h269v-74h-93v-450h-84v450h-92zM180 1329h96l66 -231h4l64 231h98l-115 -338v-239h-98v227zM397 184v324h78v-295q0 -6 2 -14t2 -9q4 -4 19 -4q8 0 22 9q15 10 21 18v295h77v-387h-77v45q-22 -28 -43 -37q-21 -12 -45 -12q-30 0 -41 14q-15 24 -15 53zM516 858 v221q0 49 33 82q43 29 96 29q55 0 88 -33q33 -26 33 -78v-221q0 -58 -33 -84q-35 -35 -92 -35t-92 35q-33 29 -33 84zM604 850q0 -13 8 -25q9 -12 29 -12q15 0 27 12q10 10 10 25v233q0 16 -10 23q-13 10 -27 10q-20 0 -27 -10q-10 -7 -10 -23v-233zM678 121v524h78v-166 q15 14 32 25q10 8 37 8q33 0 56 -23q18 -32 18 -73v-213q0 -39 -18 -64q-16 -22 -52 -22q-21 0 -41 8q-17 11 -32 25v-29h-78zM756 195q7 -10 18 -15q3 0 9 -2t10 -2q9 0 22 10q2 4 2 27v199q0 22 -6 30q-7 11 -23 11q-4 0 -9 -2t-9 -2q-2 -2 -7 -5.5t-7 -5.5v-243zM836 821 v359h90v-330q0 -19 2 -21q8 -8 18 -8t27 10q13 6 26 23v326h88v-428h-88v47q-12 -14 -53 -41q-35 -15 -47 -15q-31 0 -47 23q-16 20 -16 55zM940 231v175q0 46 33 79t84 33q53 0 82 -29q28 -36 28 -83v-101h-147v-74q0 -33 8 -41q7 -10 27 -10q12 0 24 6q8 8 8 45v19h80v-19 q0 -56 -28 -92q-28 -28 -88 -28q-50 0 -82 32q-29 37 -29 88zM1020 369h67v37q0 20 -8 36q-14 7 -24 7q-13 0 -27 -7q-8 -8 -8 -36v-37z" />
<glyph unicode="Y" horiz-adv-x="1904" d="M96 1124v109h764v-8q2 0 2 -4l-2 -15v-82h-229q45 -67 107 -148.5t125 -162t81 -104.5l305 276h-184l-25 107h670l-2 -7h2l-47 -71h-4l-19 -29h-120q-36 -8 -41 -8q-39 -9 -237.5 -170.5t-215.5 -212.5q-2 -9 -2 -52q0 -35 2 -95q2 -131 6 -158q14 -2 119 -2t121 -2 l-4 -78q-33 4 -394 4q-36 0 -177 -4t-173 -4l11 73q5 1 61.5 1t100.5 7t59 23q10 10 10 133q1 9 1 17q0 109 -7 137q-8 32 -191.5 256t-246.5 274h-226zM1571 215v111l65 -9l60 -4l-15 -110l-59 4zM1585 879q18 -5 112 -14t113 -9l-118 -465l-103 8z" />
<glyph unicode="Z" horiz-adv-x="1146" d="M96 274q218 61 307 250q10 13 15 82q11 136 51.5 216t122.5 122q51 -29 88 -33v-10q0 -31 6 -41l8 -18l19 -8q54 -18 111 -18q80 0 165 36l51 -113q-58 -31 -104 -47.5t-87 -19.5t-63.5 -1t-64.5 9h-27q-31 0 -45 -41q-1 -12 5 -22.5t12 -14.5l6 -4l16 -8q15 -7 37.5 -20 t53 -33.5t65.5 -51t70.5 -68t72 -90.5t66.5 -112l-129 -78q-34 66 -112.5 139.5t-209.5 131.5q-3 1 -8.5 3.5t-9.5 2.5q-18 0 -29 -15l-23 -26q-29 -38 -45.5 -58.5t-51.5 -56t-69.5 -57.5t-88 -47t-117.5 -41zM410 1165q0 69 48 117.5t117 48.5t117.5 -48.5t48.5 -117.5 t-48.5 -117.5t-117.5 -48.5t-117 48.5t-48 117.5z" />
<glyph unicode="a" d="M96 719q0 146 57.5 279.5t154 229.5t230 153t279.5 57t279.5 -57t229.5 -153t153 -229.5t57 -279.5t-57 -279.5t-153 -230t-229.5 -154t-279.5 -57.5t-279.5 57.5t-230 154t-154 230t-57.5 279.5zM434 541.5q0 -3.5 4 -6.5q159 -146 379 -146q156 0 277 74q12 6 32 22 q6 4 6 9.5t-5.5 9t-12.5 0.5q-3 -1 -10 -4t-10 -4q-131 -52 -269 -52q-203 0 -379 101q-5 3 -8.5 1.5t-3.5 -5zM645 743q0 -61 34 -94t89 -33q21 0 57 9q38 11 78 51l7 -10.5t7.5 -10.5l7.5 -9t11 -11t14 -12q13 -4 19 2q22 17 63 53q9 9 2 20q-12 15 -16.5 21.5t-10.5 22 t-6 32.5v129v19.5v20t-0.5 18.5t-2 19t-4 16.5t-6 17.5t-9 15t-12.5 15q-47 41 -125 41h-17q-62 -3 -108.5 -32.5t-57.5 -91.5q-5 -14 11 -19l80 -8q9 0 14 14q11 44 61 51h6q30 0 46 -22q10 -13 10 -59v-13q-16 0 -62 -4q-60 -7 -92 -24q-41 -15 -64.5 -49.5t-23.5 -84.5z M764 758q0 61 61 78q18 4 62 4v-17q0 -61 -17 -86q-14 -29 -45 -39h-10q-24 0 -37.5 16.5t-13.5 43.5zM1063 526q4 1 15 2t16 2q17 1 30 1q32 0 37 -7q3 -4 3 -12q0 -24 -25 -84q-4 -6 3 -7q4 0 7 3q24 20 36.5 52t14.5 59v4q0 8 -4 12q-4 8 -36 10h-13q-26 0 -53 -6 q-14 -5 -33 -16q-5 -4 -5 -8q0 -5 7 -5z" />
<glyph unicode="b" d="M96 721q0 145 56.5 277t151.5 228.5t227.5 154.5t277.5 59h14q145 -1 277 -59t227.5 -154t152 -228.5t56.5 -277.5q0 -146 -57.5 -279.5t-154 -230t-230 -154t-279.5 -57.5t-279.5 57.5t-229.5 154t-153 230t-57 279.5zM528 653q0 -113 79.5 -192.5t191.5 -79.5h67 q112 0 191.5 74.5t79.5 179.5q0 106 -59 180t-144 74h-135q-28 0 -48 -20t-20 -48t20 -47.5t48 -19.5h135q26 0 46.5 -35t20.5 -84t-39 -83t-96 -34h-67q-56 0 -95.5 39t-39.5 96v338q0 28 -20 48t-48 20t-48 -20t-20 -48v-338z" />
<glyph unicode="c" d="M96 719q0 146 57.5 279.5t154 229.5t230 153t279.5 57t279.5 -57t229.5 -153t153 -229.5t57 -279.5t-57 -279.5t-153 -230t-229.5 -154t-279.5 -57.5t-279.5 57.5t-230 154t-154 230t-57.5 279.5zM455 645q0 -16 16 -16h98l76 131h-174q-6 0 -11 -5.5t-5 -11.5v-98z M512 412q0 -15 12 -6l56 36q10 10 -2 19l-43 24q-5 3 -10 0.5t-5 -8.5zM543 526q-3 -5 -3 -10q0 -8 9 -12l43 -25q15 -8 22 6l199 344q8 16 -6 23l-43 25q-6 3 -13 1t-10 -8zM743 629h181l-62 131h-43zM799 1044q-4 -2 -4 -11q0 -34 62 -172q5 -11 7 -15q4 -8 20 -44.5 t29.5 -66.5t30 -65.5t28.5 -57t17 -24.5q12 -6 35 2q12 4 20 15.5t0 23.5q-92 184 -135 250q-10 16 -41 69q-30 52 -46 76q-14 20 -21 21q-1 0 -2 -1zM1008 760q46 -84 47 -86q4 -12 14 -31q2 -2 4 -7.5t2 -6.5h86q17 0 17 16v98q0 6 -5 11.5t-12 5.5h-153zM1020 539l24 -41 q10 -13 25 -6l18 10q13 10 7 26l-21 39q-5 10 -14 10q-4 0 -8 -2l-25 -12q-10 -6 -10 -14q0 -4 4 -10zM1075 436q10 -14 36 -26t28 -19q0 3 0.5 7.5t0.5 17.5t-1.5 23t-5 23.5t-11 18.5t-18.5 8q-2 1 -5 1q-9 0 -22 -9q-11 -11 -11 -22t9 -23z" />
<glyph unicode="d" d="M96 719q0 146 57 279.5t153 229.5t229.5 153t279.5 57t279.5 -57t230 -153t154 -229.5t57.5 -279.5q0 -196 -97 -362t-263 -262.5t-361 -96.5t-360.5 96.5t-262 262.5t-96.5 362zM483 719q0 -138 97 -236t235 -98t236 98t98 236q0 137 -98 234.5t-236 97.5t-235 -97.5 t-97 -234.5zM539 705q7 0 20 -1.5t19 -1.5q119 0 249 46q5 -15 17 -39q-149 -52 -232 -179q-70 73 -73 175zM541 760q10 66 49 120t98 85q69 -81 115 -166q-107 -39 -225 -39h-37zM653 492q78 119 209 163q33 -103 41 -200q-43 -15 -88 -15q-85 0 -162 52zM743 985 q42 10 72 10q113 0 193 -77q-69 -61 -154 -99q-48 89 -111 166zM879 768q90 42 165 106q50 -76 50 -155q-65 14 -107 14q-38 0 -90 -10q-3 7 -9 22.5t-9 22.5zM915 670q37 6 72 6q47 0 100 -12q-26 -125 -131 -185q-13 105 -41 191z" />
<glyph unicode="e" d="M96 721q0 145 56.5 277.5t152 228.5t227.5 154t277 59h14q145 -1 277.5 -59t227.5 -154.5t151.5 -228.5t56.5 -277q0 -146 -57 -279.5t-153 -230t-229.5 -154t-279.5 -57.5t-279.5 57.5t-230 154t-154 230t-57.5 279.5zM414 469h225q37 0 72 6q36 11 55 27q23 16 37 39 q22 39 22 80q0 40 -20 73q-18 29 -57 45q25 12 36 29q25 28 25 74q0 43 -23 76q-41 53 -131 53h-241v-502zM528 557v133h109q36 0 49 -8q33 -14 33 -53q0 -50 -33 -64q-16 -8 -51 -8h-107zM528 774v111h95q27 0 59 -8q27 -12 27 -48q0 -31 -21 -43t-53 -12h-107zM864 662 q0 -101 54 -146q55 -43 126 -43q91 0 136 51q31 36 34 66h-96q-7 -16 -18 -25q-22 -16 -53 -16q-32 0 -52 14q-37 23 -37 76h263q0 38 -4 70q-5 35 -29 75q-22 35 -62 54q-40 16 -84 16q-80 0 -129 -49q-49 -52 -49 -143zM940 899h201v51h-201v-51zM961 700q6 35 24 56 q20 20 57 20q32 0 56 -18q21 -21 24 -58h-161z" />
<glyph unicode="f" horiz-adv-x="1628" d="M96 719q0 146 57 279.5t153 230t229.5 154t279.5 57.5t279.5 -57.5t229.5 -154t153 -230t57 -279.5t-57 -279.5t-153 -229.5t-229.5 -153t-279.5 -57t-279.5 57t-229.5 153t-153 229.5t-57 279.5zM629 694h106v-323h133v323h133v133h-133v68q0 16 8.5 28.5t18.5 12.5h106 v131h-106q-66 0 -113 -51t-47 -123v-66h-106v-133z" />
<glyph unicode="g" horiz-adv-x="1628" d="M96 723q0 146 57 279.5t153 229.5t229.5 153t279.5 57t279.5 -57t229.5 -153t153 -229.5t57 -279.5q0 -196 -96.5 -362t-262 -262.5t-360.5 -96.5t-360.5 96.5t-262 262.5t-96.5 362zM631 520q0 -60 53.5 -101.5t130.5 -41.5t130.5 41.5t53.5 101.5t-53.5 102t-130.5 42 h-14q-6 12 -6 30q0 31 6 31h4q63 0 108 45t45 109q0 33 -20 57l53 29v102l-110 -61q-41 26 -80 26q-63 0 -107.5 -45t-44.5 -108q0 -71 58 -119q-15 -30 -15 -66q0 -30 13 -59q-74 -44 -74 -115zM733 520q0 23 24 39t58 16t58 -16t24 -39t-24 -39t-58 -16t-58 16t-24 39z M733 879q0 29 21.5 50t50.5 21t50.5 -21t21.5 -50q0 -30 -21 -51t-51 -21t-51 21t-21 51z" />
<glyph unicode="h" d="M96 719q0 146 57.5 279.5t154 229.5t230 153t279.5 57t279.5 -57t229.5 -153t153 -229.5t57 -279.5t-57 -279.5t-153 -229.5t-229.5 -153t-279.5 -57t-279.5 57t-230 153t-154 229.5t-57.5 279.5zM473 870q0 -57 31 -102q-4 -16 -4 -49q0 -131 92.5 -223.5t222.5 -92.5 q25 0 57 7q47 -29 101 -29q78 0 133 55t55 133q0 56 -33 107q2 14 2 43q0 129 -92.5 221t-222.5 92q-35 0 -51 -4q-45 31 -102 31q-78 0 -133.5 -55.5t-55.5 -133.5zM626 610q6 31 40 33q17 1 32.5 -10.5t29.5 -27t20 -19.5q17 -9 38 -15.5t53 -3.5t52 25q15 17 15 30 q0 14 -16 26q-32 22 -85 30q-73 10 -125 46q-48 32 -47 83v10q4 61 44 95.5t95 39.5q17 2 34 2q92 0 152 -53q24 -20 27.5 -42.5t-8.5 -37t-29 -16.5q-12 -2 -32 16t-48 37.5t-59 20.5q-49 0 -74 -32q-23 -31 6 -54q13 -9 35 -15q15 -4 44.5 -10.5t46 -10.5t41 -13t39 -18.5 t29.5 -25.5t23 -36q9 -21 10 -42q-1 -39 -35 -76q-52 -56 -130 -59q-15 -1 -29 -1q-51 0 -85 12q-42 14 -77 47q-28 28 -28 55q0 5 1 10z" />
<glyph unicode="i" d="M96 721q0 146 57 279.5t153 229.5t229.5 153t279.5 57t279.5 -57t230 -153t154 -229.5t57.5 -279.5t-57.5 -279.5t-154 -230t-230 -154t-279.5 -57.5t-279.5 57.5t-229.5 154t-153 230t-57 279.5zM535 1049q0 -32 22.5 -55t54.5 -23t55 23t23 55t-23 55.5t-55 23.5 t-54.5 -23.5t-22.5 -55.5zM549 483h127v441h-127v-441zM737 483h127v283q2 2 6 5.5t16 10.5t23.5 11t27.5 3.5t30 -8.5q7 -3 14.5 -15t7.5 -21v-269h125v269q0 43 -24 84t-62 63q-36 19 -81 21h-7q-41 0 -76 -17v21h-127v-441z" />
<glyph unicode="j" horiz-adv-x="1628" d="M96 719q0 145 56.5 277.5t151.5 228.5t226.5 154t276.5 59h16q145 -1 276.5 -59t226.5 -154t151.5 -228.5t56.5 -277.5q0 -146 -57 -279.5t-153 -230t-229.5 -154t-279.5 -57.5t-279.5 57.5t-229.5 154t-153 230t-57 279.5zM396 584q4 -33 9.5 -59.5t12.5 -42.5l6 -15 l432 125l-119 239q64 17 122 17t107.5 -12.5t85.5 -27.5t56 -28l20 -12l-147 -39l-41 78q-36 7 -73 7q-31 0 -62 -5l100 -203l432 123q-2 3 -6 8.5t-19 21.5t-32.5 31t-48 34.5t-65 35t-83 28.5t-101.5 20q-41 4 -91 4h-31q-70 -2 -145 -15q-4 -2 -8 -2l-45 92l-136 -16 l56 -111q-58 -24 -98 -58.5t-58 -70.5t-26 -75q-5 -25 -5 -49q0 -11 1 -23zM534 647v6q0 17 5 33q6 20 27 46t55 48l63 -131l-143 -39q-2 4 -4 10.5t-3 26.5z" />
<glyph unicode="k" d="M96 719q0 146 56.5 278t151.5 228.5t227 154t278 58.5h14q146 -1 278 -58.5t227 -154t151.5 -228.5t56.5 -278t-57.5 -279.5t-154 -229.5t-230 -153t-279.5 -57t-279.5 57t-229.5 153t-153 229.5t-57 279.5zM440 653q5 -110 122 -188t280 -78q166 0 283.5 80.5 t117.5 194.5q0 112 -117.5 192t-283.5 80q-145 0 -256 -62v207h-146v-426zM586 662q0 75 75 128.5t181 53.5t181 -53.5t75 -128.5q0 -76 -75 -129.5t-181 -53.5t-181 53.5t-75 129.5zM674 662q0 -51 48.5 -86t119.5 -35q69 0 118.5 35t49.5 86q0 49 -49.5 83.5t-118.5 34.5 q-70 0 -119 -34t-49 -84z" />
<glyph unicode="l" d="M96 719q0 146 57.5 279.5t154 229.5t230 153t279.5 57t279.5 -57t229.5 -153t153 -229.5t57 -279.5t-57 -279.5t-153 -229.5t-229.5 -153t-279.5 -57t-279.5 57t-230 153t-154 229.5t-57.5 279.5zM496 481q100 -65 223 -65q78 0 145.5 24.5t116 65.5t83.5 94.5t52 112.5 t17 118v19q41 29 73 76q-50 -19 -84 -23q43 25 66 80q-60 -29 -96 -35q-41 47 -105 47q-60 0 -102.5 -43t-42.5 -104q0 -13 4 -33q-182 9 -301 154q-19 -36 -19 -74q0 -82 64 -121q-35 0 -66 17v-3q0 -52 32.5 -92t82.5 -51q-20 -4 -39 -4q-9 0 -25 4q12 -43 49.5 -72 t86.5 -30q-78 -62 -181 -62h-34z" />
<glyph unicode="m" d="M96 719q0 146 57 279.5t153 229.5t229.5 153t279.5 57t279.5 -57t230 -153t154 -229.5t57.5 -279.5t-57.5 -279.5t-154 -229.5t-230 -153t-279.5 -57t-279.5 57t-229.5 153t-153 229.5t-57 279.5zM518 647h119v-117h178v-155h297v278q0 61 -43.5 104.5t-105.5 43.5 q-64 0 -105 -41q-9 36 -38.5 59t-67.5 23q-53 0 -86 -41q-6 26 -26 42.5t-46 16.5q-32 0 -54 -23t-22 -55v-135zM526 954q0 -28 19 -46.5t45 -18.5t44.5 18.5t18.5 46.5q0 26 -18.5 45t-44.5 19t-45 -19t-19 -45zM668 954q0 -35 24.5 -59.5t59.5 -24.5q34 0 59 24.5t25 59.5 q0 34 -25 59t-59 25q-35 0 -59.5 -25t-24.5 -59zM854 954q0 -46 32 -78t77 -32q46 0 77 32t31 78q0 45 -31.5 77t-76.5 32q-44 0 -76.5 -32.5t-32.5 -76.5z" />
<glyph unicode="n" d="M96 719q0 146 57.5 279.5t154 229.5t230 153t279.5 57t279.5 -57t229.5 -153t153 -229.5t57 -279.5t-57 -279.5t-153 -229.5t-229.5 -153t-279.5 -57t-279.5 57t-230 153t-154 229.5t-57.5 279.5zM418 719q0 -72 51 -123t123 -51t123 51t51 123t-51 123t-123 51t-123 -51 t-51 -123zM868 719q0 -72 50.5 -123t121.5 -51q72 0 123 51t51 123t-51 123t-123 51q-71 0 -121.5 -51t-50.5 -123z" />
<glyph unicode="o" d="M96 717q0 145 56.5 277t151.5 228.5t227.5 154.5t277.5 59h14q145 -1 277 -59t227.5 -154t152 -228.5t56.5 -277.5q0 -146 -57.5 -279.5t-154 -230t-230 -154t-279.5 -57.5t-279.5 57.5t-229.5 154t-153 230t-57 279.5zM637 768h78v-201q0 -43 8 -59q5 -19 29 -39 q25 -21 51 -29q33 -10 61 -10q36 0 66 6q15 5 65 25v90q-43 -27 -86 -27q-27 0 -43 11q-14 9 -22 24q-4 10 -4 62v147h133v102h-133v131h-80q-6 -44 -21 -71q-16 -32 -39 -49q-21 -18 -63 -33v-80z" />
<glyph unicode="p" d="M96 715q0 146 57 279.5t153 229.5t229.5 153t279.5 57t279.5 -57t230 -153t154 -229.5t57.5 -279.5t-57.5 -279.5t-154 -229.5t-230 -153t-279.5 -57t-279.5 57t-229.5 153t-153 229.5t-57 279.5zM471 438h182l45 209h129q95 0 164.5 55.5t91.5 151.5q6 29 6 54 q0 64 -39 104q-53 57 -132 57h-310zM543 362h182l43 207h131q94 0 164.5 56t91.5 151q5 26 5 50q0 63 -36 106q14 -34 14 -72q0 -24 -5 -49q-20 -95 -90.5 -151t-165.5 -56h-129l-46 -209h-151zM723 768l39 172h90q47 0 61 -43q3 -14 3 -25q0 -5 -1 -10q-2 -2 -2 -8 q-9 -35 -37.5 -60t-62.5 -26h-4h-86z" />
<glyph unicode="q" d="M96 719q0 195 96.5 360.5t262.5 262t362 96.5q146 0 279.5 -57t229.5 -153t153 -229.5t57 -279.5q0 -196 -96.5 -362t-262 -262.5t-360.5 -96.5q-196 0 -362 96.5t-262.5 262.5t-96.5 362zM492 754v-11q0 -126 88 -217q91 -94 225 -94q51 0 92 14q15 -24 35 -47 q25 -30 60 -35q12 -2 23 -2q20 0 34 6l22 9v55q-4 -1 -12 -0.5t-30.5 13.5t-43.5 40q69 44 111 115t45 154v11q0 125 -88 215q-92 95 -226 95q-133 0 -231.5 -94.5t-103.5 -226.5zM653 760q5 97 56 166t120 69q70 0 117 -69q43 -65 43 -154v-12q-3 -105 -61 -176 q-17 25 -38 39.5t-39.5 17.5t-35 2t-25.5 -5l-10 -3v-55q8 2 16 2q25 0 44 -25q2 -4 7 -13.5t7 -13.5q-19 -8 -41 -8q-69 0 -116 70q-44 66 -44 156v12z" />
<glyph unicode="r" d="M96 715q0 116 36 225.5t102 197.5t154 154.5t196.5 103.5t224.5 38h14q146 -1 278 -58.5t227 -154t151.5 -228.5t56.5 -278t-57 -279.5t-153 -229.5t-229.5 -153t-279.5 -57t-279.5 57t-230 153t-154 229.5t-57.5 279.5zM496 469q0 -38 27 -65t65 -27t65 27t27 65t-27 65 t-65 27t-65 -27t-27 -65zM496 702q133 0 229 -96q94 -94 94 -229h135q0 189 -134.5 324t-323.5 135v-134zM496 938q114 0 218 -44.5t179 -119.5t119.5 -179t44.5 -218h133q0 188 -93 348t-253 253t-348 93v-133z" />
<glyph unicode="s" d="M96 721q0 146 57 279.5t153 229.5t229.5 153t279.5 57q196 0 362 -96.5t262.5 -262t96.5 -360.5q0 -196 -96.5 -362t-262.5 -262.5t-362 -96.5q-195 0 -360.5 96.5t-262 262.5t-96.5 362zM412 606q0 -76 54 -130t130 -54t130 51t54 127v262q0 18 12.5 30.5t30.5 12.5 q17 0 29 -13t12 -30v-51l58 -27l84 27v51q0 75 -54 130t-129 55q-76 0 -130 -55t-54 -130v-256q0 -19 -12 -32t-31 -13t-31 13t-12 32v113h-141v-113zM864 600q0 -76 55 -130t130 -54q77 0 130.5 54t53.5 130v113h-141v-113q0 -19 -12 -31t-31 -12t-31 12t-12 31v117 l-84 -27l-58 27v-117z" />
<glyph unicode="t" d="M96 719q0 146 57.5 279.5t154 230t230 154t279.5 57.5t279.5 -57.5t229.5 -154t153 -230t57 -279.5t-57 -279.5t-153 -229.5t-229.5 -153t-279.5 -57t-279.5 57t-230 153t-154 229.5t-57.5 279.5zM565 676q0 -112 73.5 -191t176.5 -79h174q32 0 55 22.5t23 54.5 q0 34 -22 56t-54 22h-172q-38 0 -68 34.5t-30 80.5v43h268q32 0 55 23t23 55q0 34 -23 57t-55 23h-268v77q0 33 -22.5 55.5t-55.5 22.5q-32 0 -55 -23t-23 -55v-278z" />
<glyph unicode="u" d="M96 717q0 146 57 279.5t153 229.5t229.5 153t279.5 57t279.5 -57t230 -153t154 -229.5t57.5 -279.5t-57.5 -279.5t-154 -229.5t-230 -153t-279.5 -57t-279.5 57t-229.5 153t-153 229.5t-57 279.5zM492 604q0 -88 61.5 -150.5t148.5 -62.5h246q88 0 150.5 62.5t62.5 150.5 v172v8l-6 13l-10 8q-4 3 -43.5 4t-48.5 10q-10 8 -17 58q-7 45 -20 71q-21 45 -70.5 78.5t-93.5 38.5h-150q-87 0 -148.5 -62.5t-61.5 -150.5v-248zM666 606q0 17 12 29t29 12h239q17 0 29 -12t12 -29t-12 -29t-29 -12h-239q-17 0 -29 12t-12 29zM666 850q0 17 12 29t29 12 h116q17 0 29 -12t12 -29t-12 -29t-29 -12h-116q-17 0 -29 12t-12 29z" />
<glyph unicode="v" d="M96 719q0 146 57 279.5t153 229.5t229.5 153t279.5 57t279.5 -57t230 -153t154 -229.5t57.5 -279.5t-57.5 -279.5t-154 -229.5t-230 -153t-279.5 -57t-279.5 57t-229.5 153t-153 229.5t-57 279.5zM420 885l33 -43q3 2 7.5 5.5t17 11t23 12t22.5 5t18 -7.5q12 -14 67 -193 t68 -206q10 -21 26 -39.5t38.5 -33t47.5 -14.5t54 17q26 16 62.5 46.5t85 81t91 107t78 129.5t47.5 144q4 24 4 44q0 75 -57 106q-30 16 -64 16q-36 0 -78 -17q-85 -35 -121 -115q-11 -26 -16 -54q30 17 54 17q11 0 20 -3q31 -11 35 -45q1 -6 1 -12q0 -30 -17 -66 q-77 -141 -111 -141q-16 0 -28 33.5t-37 124.5q-5 22 -12.5 69t-14.5 79t-19.5 65.5t-34.5 48.5q-15 10 -34 10q-9 0 -19 -2q-45 -9 -104.5 -54t-96.5 -85z" />
<glyph unicode="w" d="M96 713q0 146 57 279.5t153 229.5t229.5 153t279.5 57q196 0 362 -96.5t262.5 -262t96.5 -360.5t-96.5 -360.5t-262.5 -262t-362 -96.5q-146 0 -279.5 57t-229.5 153t-153 229.5t-57 279.5zM469 713q0 -102 54 -186t143 -126l-166 453q-31 -74 -31 -141zM526 903h23l92 4 q14 0 14.5 -13.5t-12.5 -14.5q-19 -3 -39 -5l125 -374l76 227l-53 147l-37 5q-13 1 -12.5 14.5t14.5 13.5q57 -4 92 -4l92 4q14 0 14.5 -13.5t-12.5 -14.5q-19 -3 -39 -5l125 -370l35 114q27 76 27 113q0 38 -29 94q-35 56 -35 82q0 24 16.5 43t40.5 19h7q-100 90 -236 90 q-89 0 -165.5 -42t-123.5 -114zM719 381q43 -14 96 -14q64 0 117 20l-4 4l-107 291zM989 414q79 45 126.5 125t47.5 174q0 88 -43 166q2 -10 2 -35q0 -61 -26 -125z" />
<glyph unicode="x" d="M96 719q0 146 57.5 279.5t154 230t230 154t279.5 57.5t279.5 -57.5t229.5 -154t153 -230t57 -279.5t-57 -279.5t-153 -229.5t-229.5 -153t-279.5 -57t-279.5 57t-230 153t-154 229.5t-57.5 279.5zM518 637h51v-250h47v250h52v41h-150v-41zM565 1059l64 -195v-127h55v133 l64 189h-56l-35 -129h-2l-37 129h-53zM686 422q0 -18 8 -29q5 -8 23 -8q12 0 24 6q14 7 25 21v-25h43v215h-43v-164q-8 -8 -12 -10q-6 -4 -13 -4q-8 0 -10 2l-1 4q-1 4 -1 8v164h-43v-180zM752 797q0 -29 18 -47q19 -19 51 -19t51 19q19 16 19 47v123q0 27 -19 43 q-18 18 -49 18t-53 -16q-18 -18 -18 -45v-123zM801 793v129q0 9 6 12q3 6 14 6q9 0 15 -6q6 -3 6 -12v-129q0 -9 -6 -15t-15 -6q-10 0 -16 6q-4 8 -4 15zM842 387h43v16q6 -6 18 -14q12 -4 23 -4q19 0 28 12q11 15 11 35v119q0 23 -11 41q-12 12 -30 12q-15 0 -21 -4 q-12 -8 -18 -14v92h-43v-291zM885 428v135q1 1 4 3t4 3q2 0 5 1t5 1q9 0 12 -6q5 -5 5 -16v-111q0 -12 -2 -14q-6 -6 -13 -6q-2 0 -5 1t-5 1q-4 2 -10 8zM930 776q0 -19 8 -31q9 -12 27 -12q10 0 26 8q20 12 29 23v-27h49v238h-49v-180q-6 -9 -14 -13q-9 -6 -15 -6t-10 4 q-2 2 -2 13v182h-49v-199zM987 449q0 -30 17 -50q18 -18 45 -18q33 0 49 16q16 19 16 52v10h-45v-10q0 -21 -4 -25t-14 -4q-12 0 -15 6q-4 4 -4 23v40h82v56q0 28 -16 47q-16 16 -45 16t-47 -18q-19 -19 -19 -45v-96zM1032 524v21q0 16 4 20t15 4q10 0 14 -4q4 -8 4 -20v-21 h-37z" />
<glyph unicode="y" d="M96 717q0 195 96.5 361t262.5 263t362 97q146 0 279.5 -57.5t229.5 -154t153 -230t57 -279.5t-57 -279.5t-153 -229.5t-229.5 -153t-279.5 -57q-196 0 -362 96.5t-262.5 262t-96.5 360.5zM340 944h125q35 -28 137 -152.5t107 -142.5q3 -20 3 -87.5t-5 -72.5 q-8 -9 -33 -12.5t-56 -3.5h-34l-6 -41q18 0 96 2t98 2q201 0 219 -2l2 43q-9 1 -67.5 1t-65.5 1q-3 14 -4 88q-1 32 -1 51q0 26 1 31q10 28 120 118t132 95q2 0 22 4h68l10 17h2l27 39h-2l2 4h-373l15 -60h102l-170 -153q-11 14 -45.5 58t-69 90t-59.5 83h127v45l2 8l-2 2v5 h-424v-60zM1159 438l29 -4l33 -2l8 62l-33 2l-37 4v-62zM1167 807l2 -266l58 -4l65 258q-10 0 -63 4.5t-62 7.5z" />
<glyph unicode="z" horiz-adv-x="1628" d="M96 719q0 146 57 279.5t153 229.5t229.5 153t279.5 57t279.5 -57t229.5 -153t153 -229.5t57 -279.5t-57 -279.5t-153 -229.5t-229.5 -153t-279.5 -57t-279.5 57t-229.5 153t-153 229.5t-57 279.5zM549 473l35 -90q57 15 100.5 42t62 47.5t44.5 55.5l12 15q8 8 16 8 q2 0 10 -4q73 -32 117.5 -73t61.5 -77l71 43q-17 33 -37.5 62.5t-40 50t-39 38t-36 28.5t-29 18.5t-21.5 11.5l-8 4q-2 1 -4 3t-5.5 8t-2.5 12q7 22 25 22h14q30 -5 48.5 -6t53 8t76.5 31l-29 64q-48 -21 -93 -21q-31 0 -60 10l-10 4l-4 11q-5 7 -5 22v6q-20 2 -49 19 q-45 -25 -67.5 -69t-28.5 -120q-3 -40 -8 -45q-50 -107 -170 -139zM723 969q0 -38 27 -65t65 -27t65 27t27 65t-27 65t-65 27t-65 -27t-27 -65z" />
<glyph unicode="&#xa0;" d="M96 729q0 146 57.5 279.5t154 229.5t230 153t279.5 57t279.5 -57t229.5 -153t153 -229.5t57 -279.5q0 -196 -96.5 -362t-262 -262.5t-360.5 -96.5t-361 96.5t-263 262.5t-97 362z" />
<glyph unicode="&#xad;" d="M96 719q0 146 57 279.5t153 229.5t229.5 153t279.5 57t279.5 -57t230 -153t154 -229.5t57.5 -279.5q0 -196 -97 -362t-263 -262.5t-361 -96.5t-360.5 96.5t-262 262.5t-96.5 362zM501 824.5q-9 -19.5 15 -48.5h2l119 -145l-62 -176q-11 -35 4.5 -48.5t47.5 3.5l188 94 l189 -94q34 -17 48.5 -3.5t2.5 48.5l-60 176l119 145h2q23 29 13.5 48.5t-46.5 19.5h-155l-76 157q-15 34 -37 34t-37 -34l-73 -157h-158q-37 0 -46 -19.5z" />
<glyph unicode="&#x2000;" horiz-adv-x="724" />
<glyph unicode="&#x2001;" horiz-adv-x="1448" />
<glyph unicode="&#x2002;" horiz-adv-x="724" />
<glyph unicode="&#x2003;" horiz-adv-x="1448" />
<glyph unicode="&#x2004;" horiz-adv-x="482" />
<glyph unicode="&#x2005;" horiz-adv-x="362" />
<glyph unicode="&#x2006;" horiz-adv-x="241" />
<glyph unicode="&#x2007;" horiz-adv-x="241" />
<glyph unicode="&#x2008;" horiz-adv-x="181" />
<glyph unicode="&#x2009;" horiz-adv-x="289" />
<glyph unicode="&#x200a;" horiz-adv-x="80" />
<glyph unicode="&#x2010;" d="M96 719q0 146 57 279.5t153 229.5t229.5 153t279.5 57t279.5 -57t230 -153t154 -229.5t57.5 -279.5q0 -196 -97 -362t-263 -262.5t-361 -96.5t-360.5 96.5t-262 262.5t-96.5 362zM501 824.5q-9 -19.5 15 -48.5h2l119 -145l-62 -176q-11 -35 4.5 -48.5t47.5 3.5l188 94 l189 -94q34 -17 48.5 -3.5t2.5 48.5l-60 176l119 145h2q23 29 13.5 48.5t-46.5 19.5h-155l-76 157q-15 34 -37 34t-37 -34l-73 -157h-158q-37 0 -46 -19.5z" />
<glyph unicode="&#x2011;" d="M96 719q0 146 57 279.5t153 229.5t229.5 153t279.5 57t279.5 -57t230 -153t154 -229.5t57.5 -279.5q0 -196 -97 -362t-263 -262.5t-361 -96.5t-360.5 96.5t-262 262.5t-96.5 362zM501 824.5q-9 -19.5 15 -48.5h2l119 -145l-62 -176q-11 -35 4.5 -48.5t47.5 3.5l188 94 l189 -94q34 -17 48.5 -3.5t2.5 48.5l-60 176l119 145h2q23 29 13.5 48.5t-46.5 19.5h-155l-76 157q-15 34 -37 34t-37 -34l-73 -157h-158q-37 0 -46 -19.5z" />
<glyph unicode="&#x2012;" d="M96 719q0 146 57 279.5t153 229.5t229.5 153t279.5 57t279.5 -57t230 -153t154 -229.5t57.5 -279.5q0 -196 -97 -362t-263 -262.5t-361 -96.5t-360.5 96.5t-262 262.5t-96.5 362zM501 824.5q-9 -19.5 15 -48.5h2l119 -145l-62 -176q-11 -35 4.5 -48.5t47.5 3.5l188 94 l189 -94q34 -17 48.5 -3.5t2.5 48.5l-60 176l119 145h2q23 29 13.5 48.5t-46.5 19.5h-155l-76 157q-15 34 -37 34t-37 -34l-73 -157h-158q-37 0 -46 -19.5z" />
<glyph unicode="&#x2013;" horiz-adv-x="1214" d="M96 719q0 146 40.5 279.5t109 229.5t163 153t198.5 57t199 -57t163.5 -153t109.5 -229.5t41 -279.5q0 -196 -69 -362t-187 -262.5t-256.5 -96.5t-256.5 96.5t-186.5 262.5t-68.5 362zM384 824.5q-6 -19.5 11 -48.5h1l85 -145l-44 -176q-8 -35 3 -48.5t34 3.5l133 94 l135 -94q24 -17 34 -3.5t2 48.5l-43 176l85 145h1q17 29 10 48.5t-33 19.5h-110l-54 157q-11 34 -26.5 34t-26.5 -34l-52 -157h-112q-27 0 -33 -19.5z" />
<glyph unicode="&#x2014;" horiz-adv-x="2238" d="M96 719q0 146 81 279.5t217.5 229.5t326.5 153t397.5 57t397.5 -57t327 -153t219 -229.5t82 -279.5q0 -196 -138 -362t-374 -262.5t-513.5 -96.5t-513 96.5t-372.5 262.5t-137 362zM672 824.5q-13 -19.5 21 -48.5h3l169 -145l-88 -176q-15 -35 7 -48.5t67 3.5l268 94 l268 -94q49 -17 69.5 -3.5t3.5 48.5l-85 176l169 145h3q32 29 18.5 48.5t-65.5 19.5h-221l-108 157q-21 34 -52.5 34t-52.5 -34l-104 -157h-225q-52 0 -65 -19.5z" />
<glyph unicode="&#x202f;" horiz-adv-x="289" />
<glyph unicode="&#x205f;" horiz-adv-x="362" />
<glyph unicode="&#xe000;" horiz-adv-x="1443" d="M0 0v1444h1444v-1444h-1444z" />
</font>
</defs>
</svg>
